BEYOND -《1988北京演唱会》[APE]

BEYOND -《1988北京演唱会》[APE]
  • 片  名  BEYOND -《1988北京演唱会》[APE]
  • 简  介  Douban3680080:9.4(238 votes)发行时间: 1988年地区: 大陆,香港语言: 普通话,英语
  • 类  别  音乐
  • 小  类  华语音乐


  • 详细介绍简介: 专辑介绍:
    1988年10月15-16日是BEYOND第一次踏足大陆开专场演唱会, 地点是北京最大的室内演出场地首都体育馆,可以容纳二万名观众,亦是BEYOND面 对最多观众演出的第一次.此外,BEYOND在首体排练时, 国内摇摆先驱崔健特地到场馆作私人探访,并与家驹交流了两地的摇摆感受,而当天晚上 ,家驹在演唱会中亦唱出崔健的名曲 一无所有 作为回应. 1988年10月13日 一行共8人从香港乘火车到达广洲,其中除了BEYOND四人外,还有经纪人-leslie chan、唱片监制-王纪华、演出助理-李俊云和填词人-刘卓辉10月14日 上午坐民航的班机先到达了天津,随后坐汽车到北京,住进了北京燕京饭店这时已是下午5点了!(由于当时广洲-北京的机票很紧张,故只好先到天津)10月15日乐队去首体“适应场地”--排练了几首歌.10月16日 晚大约7点15分,演唱会正试开始,两个小时后,曲终人散.10月17日 去八达岭长城、颐和园观光.10月18日 乘飞机返回香港,至此,BEYOND北京行结束。
    演唱会在10月16日晚7点15分左右正式开始。开始后,BEYOND演唱了几首粤语歌曲, 由于当时北京观众对广东话不是很熟悉以及BEYOND乐队还很陌生,反应不是很强烈, 到中场时,走了一半。直到阿PAUL唱出国语版《大地》时,才掀起第一个高潮,证 明他们若多唱一些国语歌,那一半观众不会跑了那么多的。在《大地》的中段,乐 队加插了四人各自的独奏部分,观众情绪十分高涨。尤其是世荣的击鼓独奏,显然 是最受欢迎的一环。 全场最使观众欢呼雀跃的是《一无所有》,家驹的普通话虽不是很好,但那份味道 却不比崔健逊色多少。最贵的是家驹有个人的演绎方法,不是在简单的模仿。最后 以一曲国语版的《旧日的足迹》结束了两个小时的演出,但是观众并未立即离去..... 资料来源与网络 感谢原作者
    申明:本人发布资源来自HDCD论坛 感谢四眼仔发布
  • BEYOND -《1988北京演唱会》[APE]_large

精选评论

BEYOND的APE在VC上就差03 05两个LIVE CD了,其他终于都逐渐补全了!!
另外,如果楼主有的话,北京演唱会还有一个版本的,曲目有一些出入,希望早日补全!
多谢!
是啊.曲目不一样,请问楼主有现场吗?
终于找到了
为什么把中间说话的声音删掉,就想听家驹说话的声音
PERFORMER "BEYOND"
TITLE "1988北京演唱會"
FILE "1988北京演唱會.APE" WAVE
TRACK 01 AUDIO
TITLE "亞拉伯跳舞女郎"
PERFORMER "BEYOND"
INDEX 01 00:00:00
TRACK 02 AUDIO
TITLE "午夜流浪"
PERFORMER "BEYOND"
INDEX 01 03:50:50
TRACK 03 AUDIO
TITLE "衝開一切"
PERFORMER "BEYOND"
INDEX 01 08:08:37
TRACK 04 AUDIO
TITLE "冷雨夜"
PERFORMER "BEYOND"
INDEX 01 12:13:00
TRACK 05 AUDIO
TITLE "大地"
PERFORMER "BEYOND"
INDEX 01 17:01:62
TRACK 06 AUDIO
TITLE "一無所有"
PERFORMER "BEYOND"
INDEX 01 21:30:62
TRACK 07 AUDIO
TITLE "ONCE AGAIN"
PERFORMER "BEYOND"
INDEX 01 25:48:62
TRACK 08 AUDIO
TITLE "昔日舞曲"
PERFORMER "BEYOND"
INDEX 01 30:14:25
TRACK 09 AUDIO
TITLE "秘密警察"
PERFORMER "BEYOND"
INDEX 01 34:38:37
TRACK 10 AUDIO
TITLE "再見理想"
PERFORMER "BEYOND"
INDEX 01 38:09:50
哎 88年的东西 不易啊!我也特喜欢听家具说话
支持,家驹虽逝,歌依旧如当年
我特喜欢家驹唱的一无所有 虽然有点唱错词感觉但是这歌很难找 就这个演出会有。
赶紧下
我喜欢,谢谢!
我就要个CUE,谢谢楼主和6楼朋友!
收藏了。谢谢。

靠,这你也能写,错改了!